Besharam (2013) 720p Blu-Ray x264 - Hindi - AC3 - 5.1 - ESubs - Mafiaking

Movies > Bollywood



SIZE: 1.04 GB






Description



image









image















IMDB Rating: 3.7/10.0





GENRE: Comedy | Romance









General

Unique ID : 170686317218900387958411188009759548209 (0x8068FD2B5CBE6B03843C1381C1B62331)

Complete name : Besharam (2013) 720p Blu-Ray x264 - Hindi - AC3 - 5.1 - Mafiaking.mkv

Format : Matroska

Format version : Version 4 / Version 2

File size : 1.03 GiB

Duration : 2h 22mn

Overall bit rate : 1 037 Kbps

Movie name : Besharam (2013) 720p Blu-Ray x264 - Hindi - AC3 - 5.1 - Mafiaking

Encoded date : UTC 2013-11-16 16:32:57

Writing application : mkvmerge v6.2.0 ('Promised Land') built on Apr 28 2013 12:22:01

Writing library : libebml v1.3.0 + libmatroska v1.4.0





Video

ID : 1

Format : AVC

Format/Info : Advanced Video Codec

Format profile : High@L3.1

Format settings, CABAC : Yes

Format settings, ReFrames : 5 frames

Codec ID : V_MPEG4/ISO/AVC

Duration : 2h 22mn

Bit rate : 875 Kbps

Width : 1 280 pixels

Height : 544 pixels

Display aspect ratio : 2.35:1

Frame rate mode : Constant

Frame rate : 23.976 fps

Color space : YUV

Chroma subsampling : 4:2:0

Bit depth : 8 bits

Scan type : Progressive

Bits/(Pixel*Frame) : 0.052

Stream size : 874 MiB (83%)

Title : Mafiaking

Writing library : x264 core 133 r2334 a3ac64b



Language : Hindi

Default : Yes

Forced : No





Audio

ID : 2

Format : AC-3

Format/Info : Audio Coding 3

Mode extension : CM (complete main)

Format settings, Endianness : Big

Codec ID : A_AC3

Duration : 2h 22mn

Bit rate mode : Constant

Bit rate : 160 Kbps

Channel(s) : 6 channels

Channel positions : Front: L C R, Side: L R, LFE

Sampling rate : 48.0 KHz

Bit depth : 16 bits

Compression mode : Lossy

Stream size : 163 MiB (15%)

Title : Mafiaking

Language : Hindi

Default : Yes

Forced : No









SAMPLE WITH IN TORRENT








Comments





Tags


Besharam ( 2013 ) 720p Blu-Ray x264 - Hindi - AC3 - 5.1 Besharam _( 2013 )_ 720p _ Blu-Ray _ x264 Besharam (2013) 720p Blu-Ray x264 - Hindi - AC3 - 5.1 - ESubs - Mafiaking Besharam ( 2013 ) 720p Blu-Ray x264 - Hindi - AC3 - 5.1 torrentz.eu1337x.org Besharam 2013 720p Blu Ray x264 Hindi AC3 5 1 ESubs Mafiaking extratorrent.cc Besharam 2013 720p Blu Ray x264 Hindi AC3 5 1 ESubs Mafiaking movies Besharam ( 2013 ) 720p Blu-Ray x264 - Hindi - AC3 - 5.1 axxotorrent.comBesharam - 2013 - 720p - Blu-Ray - X264 Download Besharam (2013) 720p Blu-Ray x264 - Hindi - AC3 - 5.1 - ESubs - Mafiaking FREE Torrent. Fast, Hi-Speed, Direct, Free Torrent Download | aXXo TORRENT Download Besharam ( 2013 ) 720p Blu-Ray x264 - Hindi - AC3 1337x.org 720p Blu-Ray x264 - Hindi - AC3 - 5.1 - ESubs 0. 0. ( 2013 ) 720p Blu-Ray x264 - Hindi - AC3 - 5.1 Hindi - AC3 - 5.1 - Mafiaking .mkv (1.03 GB) Besharam Besharam 2013 Hindi DvDRip 720p x264 AAC Torrent torrentz.euBesharam 2013 Hindi DvDRip 720p x264 AAC x264 Hindi AC3 5 1 ESubs Mafiaking » movies h 264 x264 2013 720p Blu Ray x264 Hindi AC3 5 1 ESubs Mafiaking Besharam ( 2013 ) 720p Blu-Ray - x264 - Hindi - AC3 - 5.1 Besharam %20( 2013 )%20 720p %20BluBesharam (2013) 720p Blu-Ray - x264 - Hindi - AC3 - 5.1 - ESubs - Mafiaking Torrent Description Besharam ( 2013 ) 720p Blu Ray x264 Hindi AC3 5.1 ESubs dev.torrentz.proBesharam -( 2013 )- 720p - Blu-Ray - x264 - Hindi - AC3 - 5.1 Besharam (2013) 720p Blu Ray x264 Hindi AC3 5.1 ESubs Mafiaking torrent download locations × Madras Cafe 2013 720p Bluray x264 Hindi AC3 5 1 ESubs bitsnoop.com2013 - 720p - bluray - x264 -h-q55188031.html Download "Madras Cafe ( 2013 ) 720p Bluray x264 - Hindi - AC3 - 5.1 720p Bluray x264 - Hindi - AC3 - 5.1 - ESubs - Mafiaking .mkv: 910 MB: Madras Cafe ( 2013 ) 720p Besharam 2013 Hindi DvDRip 720p x264 AAC Torrent torrentz.meBesharam 2013 Hindi DvDRip 720p x264 AAC Besharam 2013 720p Blu Ray x264 Hindi AC3 5 1 ESubs Mafiaking » movies h 264 x264 bollywood 1 Krrish 3 2013 720p Blu Ray Hindi 5 1 ESubs Ma Torrent 2013 - 720p - blu-ray ( 2013 ) - 720p - Blu-Ray - x264 - Hindi - AC3 - 5 1 - ESubs - Ma ( 2013 ) - 720p - Blu-Ray - x264 - Hindi - AC3 - 5.1 - ESubs Blu-Ray - x264 - Hindi Pagination 1 2 3 4 5 Next
cde:QzpcIVBBUlNFXGtpY2tcYmVzaGFyYW0tMjAxMy03MjBwLWJsdS1yYXkteDI2NC1oaW5kaS1hYzMtNS0xLWVzdWJzLW1hZmlha2luZy10ODE4OTIxMy50eHQ=:cde